» » Rick Bowles - Free For The Evening

Rick Bowles - Free For The Evening album flac

Rick Bowles - Free For The Evening album flac
  • Performer: Rick Bowles
  • Title: Free For The Evening
  • Genre: Rock
  • Country: US
  • Date of release: 1982
  • MP3 size: 1420 mb
  • FLAC size 1883 mb
  • Formats AIFF MMF FLAC AU AAC MP3 VQF

And this album became well-known as one of Robert Byrne and Brandon Barnes related works among AOR, Westcoast freaks. It has been believed that "Free For The Evening" is the only one album Rick Bowles released because he lost his deal with Polydor before releasing his next album. Rick had not succeeded so much as a solo singer but does well as a songwriter. His materials are recorded by many big names in Pop Country field such as Alabama and/or Terry Clark through 1990'.

Rick Bowles - 1982 (2010) - Free For The Evening/08 Dragon Suite. Rick Bowles - 1982 (2010) - Free For The Evening/02 (Tonight I'll Be Your) Fool Again. Rick Bowles - 1982 (2010) - Free For The Evening/Rick Bowles - Free For The Evening (2010 Remastered). Rick Bowles - 1982 (2010) - Free For The Evening/04 Eagle And The North Wind.

Rick Bowles, born and raised in North Carolina released his acclaimed debut album "Free For The Evening" under Polydor Records USA in 1982 featuring a beautiful ballads tune "(Tonight I'll Be Your) Fool Again". And this album became well-known as one of the albums merv pilgrim and barron pilgrim related works.

Rick Bowles - 1982 (2010) - Free For The Evening 01 Too Good To Turn Back No. lac 02 (Tonight I'll Be Your) Fool Again. 04 Eagle And The North Wind. Free For The Evening (2010 Remastered). Rick Bowles - Free For The Evening (2010 Remastered).

Rick Bowles - Free For The Evening MP3 version. 1530 downloads at 15 mb/s. Rick Bowles - Free For The Evening FLAC version. 1915 downloads at 11 mb/s.

Rick Bowles Baby Lied. play) (pause) (download) (fb) (vk) (tw). Rick Bowles Eagle And The North Wind. Rick Bowles Too Good To Turn Back Now. 04:07. Rick Bowles So Far So Good &.

SUNY Empire State College.

Tracklist

Too Good To Turn Back Now
(Tonight I'll Be Your) Fool Again
Your Loss
Eagle And The North Wind
So Far So Good
Listen To Last
Mr. Right
Dragon Suite

Versions

Category Artist Title (Format) Label Category Country Year
2391 547, PD-1-6352 Rick Bowles Free For The Evening ‎(LP, Album) Polydor, Polydor 2391 547, PD-1-6352 US 1982
28MM 0209 Rick Bowles Free For The Evening ‎(LP, Album) Polydor 28MM 0209 Japan 1982
2391 547 Rick Bowles Free For The Evening ‎(LP, Album) Polydor 2391 547 France 1982
PD-1-6352 Rick Bowles Free For The Evening ‎(LP, Album) Polydor PD-1-6352 US 1982
2391 547 Rick Bowles Free For The Evening ‎(LP, Album, TP) Polydor 2391 547 US 1982
POCP-2044 Rick Bowles Free For The Evening ‎(CD, Album) Polydor POCP-2044 Japan 1991
UICY-94690 Rick Bowles Free For The Evening ‎(CD, Album, Ltd, Num, RE, RM, SHM) Universal Records UICY-94690 Japan 2010


Comments: (1)
Bolanim
foobar2000 1.3.17 / Dynamic Range Meter 1.1.1log date: 2018-04-12 20:21:56--------------------------------------------------------------------------------Analyzed: Rick Bowles / Free For The Evening [2010 Light Mellow CD]--------------------------------------------------------------------------------DR Peak RMS Duration Track--------------------------------------------------------------------------------DR13 -0.32 dB -16.27 dB 4:07 01-Too Good To Turn Back NowDR13 -1.79 dB -19.07 dB 3:56 02-Fool AgainDR14 -0.02 dB -17.30 dB 4:40 03-Your LossDR15 -0.77 dB -19.87 dB 4:01 04-Eagle And The North WindDR14 -2.40 dB -20.37 dB 4:31 05-So Far So GoodDR14 -1.11 dB -17.05 dB 4:30 06-Listen To LastDR14 0.00 dB -17.16 dB 4:10 07-Mr. RightDR15 -0.16 dB -19.61 dB 8:59 08-Dragon Suite--------------------------------------------------------------------------------Number of tracks: 8Official DR value: DR14Samplerate: 44100 HzChannels: 2Bits per sample: 16Bitrate: 752 kbpsCodec: ALAC================================================================================
MP3 albums Related to Rick Bowles - Free For The Evening
Contacts | Privacy Policy | DMCA
All rights reserved.
drake-tickets.org © 2016-2019