» » The Frost Project - The Chief's Warning Remixes

The Frost Project - The Chief's Warning Remixes album flac

The Frost Project - The Chief's Warning Remixes album flac
  • Performer: The Frost Project
  • Title: The Chief's Warning Remixes
  • Genre: Electronic
  • Country: US
  • Date of release: 2003
  • Music style: House
  • MP3 size: 1760 mb
  • FLAC size 1472 mb
  • Formats ADX APE VOX RA MP2 MP4 MIDI

Complete your The Frost Project collection.

A remix album is an album consisting of remixes or rerecorded versions of an artists' earlier released material. The first act who employed the format was American singer-songwriter Harry Nilsson (Aerial Pandemonium Ballet, 1971). As of 2019, the best-selling remix album of all time was Michael Jackson's Blood on the Dance Floor: HIStory in the Mix (1997). List of best-selling music artists.

The Chief's Warning The Frost Project. The Tribal Sax (Robbie Rivera (Original Mix) The Rivera Project.

It's not about the publicity, it's about doing something you love doing. With that said, let me show you my euphoria. Frost Project added 3 new photos. 11 November 2013 ·. Untitled Album. Frost Project added 8 new photos.

Frost Project,The-The Chief's Warning 03. Borgo Manero-The Darwins Theory (Manero's White Lady Mix) 04. Jair-Shake 0. 8 -A tukey(. 5) -A gauss(. 875) -b 4096 -V -T "artist %a" -T "title %t" -T "album %g" -T "date %y" -T "tracknumber %n" -T "genre %m" %s TOC of the extracted CD Track Start Length Start sector End sector -1 0:00. 02 0 43276 2 9:37. 02 4:16 The Frost Project-The Chief's Warning. wav" WAVE TRACK 02 AUDIO TITLE "The Chief's Warning" PERFORMER "The Frost Project" INDEX 01 00:00:00 FILE "03. Borgo Manero-The Darwins Theory. wav" WAVE TRACK 03 AUDIO TITLE "The Darwins Theory" PERFORMER "Borgo Manero" INDEX 01 00:00:00 FILE "04. Jair-Shake. wav" WAVE TRACK 04 AUDIO TITLE "Shake" PERFORMER "Jair" INDEX 01 00:00:00 FILE "05.

Слушайте Frost Project и скачивайте бесплатно в формате mp3 прямо сейчас, без кодов, смс и регистации. Guru Josh Project - RеаL Remix - DJ Slava Ghost vs Dj Frost. Pump Up The Volume (Purple Project Remix) - Electro House - 19/03/11 - Ivan Frost. Pump Up the Volume (Slin Project Garage Mix) - Ivan Frost. Electro House Promo Mix Club Live Original - Dj Frost ProJect. Pump Up The Volume (Purple Project Remix) - SuperNova M Collection - Ivan Frost. Dj Bee Night RAI Club Extended Mix 2011 - Fly Project ft Vegas Project Mandala Russian version.

Tracklist Hide Credits

A The Chief's Warning (Nympho Soundz Mix)
Remix – Nympho Soundz
B The Chief's Warning (Tom Neville Mix)
Remix – Tom Neville

Credits

  • Producer – DJ Addy*, Myka

Other versions

Category Artist Title (Format) Label Category Country Year
N009 The Frost Project The Chief's Warning Remixes ‎(12", W/Lbl, Sti) Nympho Soundz N009 US 2003
MP3 albums Related to The Frost Project - The Chief's Warning Remixes
Contacts | Privacy Policy | DMCA
All rights reserved.
drake-tickets.org © 2016-2019