» » Gräwe / Reijseger / Hemingway - Sonic Fiction

Gräwe / Reijseger / Hemingway - Sonic Fiction album flac

Gräwe / Reijseger / Hemingway - Sonic Fiction album flac
  • Performer: Gräwe / Reijseger / Hemingway
  • Title: Sonic Fiction
  • Genre: Jazz
  • Country: Switzerland
  • Date of release: 1990
  • Music style: Free Improvisation
  • MP3 size: 1494 mb
  • FLAC size 1237 mb
  • Formats MP4 AUD DTS VOC ADX AIFF TTA

Composed By – Gerry Hemingway. Composed By – Georg Gräwe. 5. Aspects Of Somnabulism, Demure Scuttle. 6. Aspects Of Somnabulism, Sleewaltzer. Composed By – Ernst Reijseger. Composed By – Gerry Hemingway.

In Pictures In the Artist's Own Words In The Biz In the Studio Interviews Interzone Jazz and the Net Jazz Art Jazz Bastard Jazz Emerges Jazz Fiction Jazz For Kids Jazz From The Vinyl Junkyard Jazz Goes to College Jazz in the Aquarian Age Jazz Journal Jazz Near Me Jazz Poetry Jazz Primer Jazz Quest Jazz Raconteurs Jazz That Scratches, Swings and.

In response, rather than play louder or faster, Hemingway keeps the volume dynamic the same and uses as many techniques on his instruments as he can. All the while Gräwe hangs a backdrop for the duo to create a context from. It sounds and feels like play, like fun, and it probably is. But it is also a razor-sharp manner of listening to, and playing to, both individual and group dynamics. Reijseger makes great use of his exceptional ability to play pizzicato.

Graewe Reijseger Hemingway - Sonic Fiction 2007/Georg Graewe, Ernst Reijseger, Gerry Hemingway - Sonic Fiction. Graewe Reijseger Hemingway - Sonic Fiction 2007/Georg Graewe, Ernst Reijseger, Gerry Hemingway - Sonic Fiction.

flac" WAVE TRACK 01 AUDIO TITLE "Alien Corn I" PERFORMER "Georg Graewe, Ernst Reijseger, Gerry Hemingway" ISRC CH1310600792 INDEX 01 00:00:00 TRACK. INDEX 01 42:42:09 TRACK 08 AUDIO TITLE "Masting" PERFORMER "Georg Graewe, Ernst Reijseger, Gerry Hemingway" ISRC CH1310600799 INDEX 01 62:24:14.

Album · 1989 · 8 Songs. Graewe, Georg - Reijseger, Ernst - Hemingway, Gerry: Saturn Cycle. Graewe: Gedachtnisspuren.

Sonic Fiction and the half-dozen subsequent recordings by Hemingway, Reijseger, and Graewe prove that the creative improvisational continuum is now fully integrated into the human genome. LabelHat Hut. UPC752156063827.

Tracklist

Alien Corn I 8:26
Alien Corn II 3:00
Alien Corn III 6:00
Fibulation 7:20
Aspects Of Somnambulism / Demure Scuttle 5:58
Aspects Of Somnambulism / Sleewaltzer 11:46
Fangled Talk 19:40
Masting 6:27

Versions

Category Artist Title (Format) Label Category Country Year
hat ART CD 6043 Gräwe / Reijseger / Hemingway* Sonic Fiction ‎(CD, Album) hat ART hat ART CD 6043 Switzerland 1990
hat ART CD 6043 Gräwe - Reijseger - Hemingway Sonic Fiction ‎(CD, Album) hat ART hat ART CD 6043 Switzerland 1990
hatOLOGY 638 Georg Graewe, Ernst Reijseger, Gerry Hemingway* Sonic Fiction ‎(CD, Album, RE) hatOLOGY hatOLOGY 638 Switzerland 2007
MP3 albums Related to Gräwe / Reijseger / Hemingway - Sonic Fiction
Contacts | Privacy Policy | DMCA
All rights reserved.
drake-tickets.org © 2016-2019